عرض مشاركة واحدة
  رقم المشاركة : [ 1  ]
قديم 01-30-2012
UPLODER JORDANSAT4U
UPLODER JORDANSAT4U


المشاركات
161

+التقييم
7

تاريخ التسجيل
16 - 1 - 12

الاقامة

نظام التشغيل

رقم العضوية
21927

UPLODER JORDANSAT4U على طريق التميز
غير متواجد
 
افتراضي The Twilight Saga: Breaking Dawn Part 1 (2011)-DVDRIp Xvid-THC
The Twilight Saga: Breaking Dawn Part 1 (2011)-DVDRIp Xvid-*THC*




RELEASE iNFO:

كود:
The Twilight Saga: Breaking Dawn Part 1 (2011)-DVDRIp Xvid-THC  


Not long after immortal soul mates Bella Swan and Edward Cullen say "I do," a strange sensation begins to build inside Bella's burgeoning belly. But the couple's unborn child is at risk before she's even born.

Genre:
   Dramas, Sci-Fi & Fantasy, Fantasy   



General
Format                           : AVI
Format/Info                      : Audio Video Interleave
Format profile                   : OpenDML
Format settings                  : rec
File size                        : 1.40 GiB
Duration                         : 1h 57mn
Overall bit rate                 : 1 706 Kbps
Writing application              : AVI-Mux GUI 1.17.8, Aug 30 2008  12:36:58

Video
ID                               : 0
Format                           : MPEG-4 Visual
Format profile                   : Advanced [email protected]
Format settings, BVOP            : 4
Format settings, QPel            : Yes
Format settings, GMC             : No warppoints
Format settings, Matrix          : Default (H.263)
Codec ID                         : XVID
Codec ID/Hint                    : XviD
Duration                         : 1h 57mn
Bit rate                         : 1 253 Kbps
Width                            : 720 pixels
Height                           : 304 pixels
Display aspect ratio             : 2.35:1
Frame rate                       : 23.976 fps
Color space                      : YUV
Chroma subsampling               : 4:2:0
Bit depth                        : 8 bits
Scan type                        : Progressive
Compression mode                 : Lossy
Bits/(Pixel*Frame)               : 0.239
Stream size                      : 1.03 GiB (73%)
Writing library                  : XviD 1.2.1 (UTC 2008-12-04)

Audio
ID                               : 1
Format                           : AC-3
Format/Info                      : Audio Coding 3
Mode extension                   : CM (complete main)
Codec ID                         : 2000
Duration                         : 1h 57mn
Bit rate mode                    : Constant
Bit rate                         : 448 Kbps
Channel(s)                       : 6 channels
Channel positions                : Front: L C R, Side: L R, LFE
Sampling rate                    : 48.0 KHz
Bit depth                        : 16 bits
Compression mode                 : Lossy
Stream size                      : 375 MiB (26%)
Alignment                        : Aligned on interleaves
Interleave, duration             : 64 ms (1.53 video frames)
Interleave, preload duration     : 3840 ms
Title                            : VTS_07_1 T80 3_2ch 448Kbps DELAY 0ms_new
SCREENSHOTS:






DOWNLOAD LINKS:

كود:
Uploaded:
http://uploaded.to/file/ak2024h8
كود:
Netload:
http://netload.in/dateinkXDWSgvEW/The Twilight Saga_ Breaking Dawn Part 1 (2011)-DVDRIp Xvid-THC.avi.htm
كود:
Letitbit:
http://letitbit.net/download/31625.32db8cc81caf1ee860e3a24f6d2f/The Twilight Saga  Breaking Dawn Part 1 (2011)-DVDRIp Xvid-THC.avi.html